<?xml version="1.0" standalone="no"?>
<!DOCTYPE svg PUBLIC "-//W3C//DTD SVG 1.1//EN" "http://www.w3.org/Graphics/SVG/1.1/DTD/svg11.dtd" >
<svg xmlns="http://www.w3.org/2000/svg">
<metadata></metadata>
<defs>
<font id="esri_climate__precipitationRg" horiz-adv-x="983" >
<font-face units-per-em="2048" ascent="1638" descent="-410" />
<missing-glyph horiz-adv-x="1024" />
<glyph horiz-adv-x="0" />
<glyph horiz-adv-x="682" />
<glyph unicode=" "  horiz-adv-x="1024" />
<glyph unicode="&#x09;" horiz-adv-x="1024" />
<glyph unicode="&#xa0;" horiz-adv-x="1024" />
<glyph unicode="!" horiz-adv-x="1863" d="M0 0l317 504l306 -504h-623zM623 0l315 504l303 -504h-618zM1241 0l320 504l303 -504h-623z" />
<glyph unicode="&#x22;" horiz-adv-x="1871" d="M4 502h623l-320 -502zM627 502h618l-315 -502zM1245 502h623l-318 -502z" />
<glyph unicode="#" horiz-adv-x="1241" d="M0 0l317 504l306 -504h-623zM623 0l315 504l303 -504h-618z" />
<glyph unicode="$" horiz-adv-x="1245" d="M4 504h623l-320 -504zM627 504h618l-315 -504z" />
<glyph unicode="%" horiz-adv-x="622" d="M0 0l317 504l306 -504h-623z" />
<glyph unicode="&#x26;" horiz-adv-x="626" d="M4 504h623l-320 -504z" />
<glyph unicode="'" horiz-adv-x="1839" d="M4 0v16h19q-8 2 -9 25q0 27 16.5 71t51.5 87t89 74.5t132 31.5h12q82 -2 139.5 -37t92.5 -80t50 -90t15 -65q0 -16 -6 -17h23q-8 2 -8 25q0 27 16 71t52 87t90.5 74.5t129.5 31.5h13q86 -2 143 -37t91 -80t48.5 -90t14.5 -67q0 -14 -5 -15h21q-8 2 -8 25q0 27 16.5 71 t51 87t90 74.5t133.5 31.5h12q82 -2 139 -37t92 -81t50.5 -91t15.5 -65q0 -14 -6 -15h18v-16h-1835z" />
<glyph unicode="(" horiz-adv-x="1839" d="M4 287v16h1835v-16h-18q6 -4 6 -15q0 -20 -15.5 -65t-50.5 -91t-92 -81t-139 -35h-12q-78 0 -133.5 30.5t-90 73.5t-51 87.5t-16.5 70.5q0 23 8 25h-21q4 -4 5 -15q0 -23 -14.5 -67.5t-48.5 -89.5t-91 -80t-143 -35h-13q-76 0 -130 30.5t-90 73.5t-52 87.5t-16 70.5 q0 23 8 25h-23q6 -4 6 -17q0 -20 -15 -65t-50 -90t-92.5 -80t-139.5 -35h-12q-78 0 -132 30.5t-89 73.5t-51.5 87.5t-16.5 70.5q0 23 9 25h-19z" />
<glyph unicode=")" horiz-adv-x="1204" d="M0 25q0 27 16.5 70.5t51 86.5t89 75t132.5 32h12q82 -2 139.5 -37t92 -80t50 -90t15.5 -66q0 -16 -6 -16h-582q-10 0 -10 25zM606 25q0 27 16.5 70.5t52.5 86.5t90 75t130 32h12q86 -2 143.5 -37t91.5 -80t48 -90t14 -68q0 -14 -4 -14h-582q-12 0 -12 25z" />
<glyph unicode="*" horiz-adv-x="1214" d="M0 262q0 25 10 25h582q6 0 6 -17q0 -20 -15.5 -65t-50 -90t-92 -80t-139.5 -35h-12q-78 0 -132.5 30.5t-89 73.5t-51 87.5t-16.5 70.5zM606 262q0 25 12 25h582q4 0 4 -15q0 -23 -14 -67.5t-48 -89.5t-91.5 -80t-143.5 -35h-12q-76 0 -130 30.5t-90 73.5t-52.5 87.5 t-16.5 70.5z" />
<glyph unicode="+" horiz-adv-x="598" d="M0 25q0 27 16.5 70.5t51 86.5t89 75t132.5 32h12q82 -2 139.5 -37t92 -80t50 -90t15.5 -66q0 -16 -6 -16h-582q-10 0 -10 25z" />
<glyph unicode="," horiz-adv-x="598" d="M0 262q0 25 10 25h582q6 0 6 -17q0 -20 -15.5 -65t-50 -90t-92 -80t-139.5 -35h-12q-78 0 -132.5 30.5t-89 73.5t-51 87.5t-16.5 70.5z" />
<glyph unicode="-" horiz-adv-x="1839" d="M0 12q0 25 31 103q45 113 190 112h8q156 -2 201 -114q33 -72 33 -103q0 -10 -6 -10h-451q-6 0 -6 12zM465 0l219 387l234 -387h-453zM922 12q0 29 30 103q45 113 193 112h8q154 -2 199 -114q33 -74 32 -105q0 -8 -4 -8h-450q-8 0 -8 12zM1386 0l222 387l231 -387h-453z " />
<glyph unicode="." horiz-adv-x="1837" d="M0 375q0 12 6 12h451q6 0 6 -10q0 -29 -33 -103q-45 -113 -201 -114h-8q-145 0 -190 112q-31 76 -31 103zM465 387h453l-234 -387zM922 375q0 12 8 12h450q4 0 4 -8q0 -27 -32 -105q-45 -113 -199 -114h-8q-147 0 -193 112q-31 74 -30 103zM1386 387h453l-231 -387z" />
<glyph unicode="/" horiz-adv-x="1384" d="M0 12q0 25 31 103q45 113 190 112h8q156 -2 201 -114q33 -74 33 -103q0 -10 -6 -10h-451q-6 0 -6 12zM465 0l219 387l234 -387h-453zM922 12q0 29 30 103q45 113 193 112h8q154 -2 199 -114q33 -78 32 -105q0 -8 -4 -8h-450q-8 0 -8 12z" />
<glyph unicode="0" horiz-adv-x="1384" d="M0 373q0 12 6 12h451q6 0 6 -10q0 -29 -33 -103q-45 -113 -201 -114h-8q-145 0 -190 112q-31 76 -31 103zM465 385h453l-234 -385zM922 373q0 12 8 12h450q4 0 4 -8q0 -27 -32 -105q-45 -113 -199 -114h-8q-147 0 -193 112q-31 74 -30 103z" />
<glyph unicode="1" horiz-adv-x="1382" d="M2 0l219 387l234 -387h-453zM459 12q0 29 30 103q45 113 193 112h8q154 -2 199 -114q33 -78 33 -105q0 -8 -4 -8h-451q-8 0 -8 12zM924 0l221 387l231 -387h-452z" />
<glyph unicode="2" horiz-adv-x="1382" d="M2 385h453l-234 -385zM459 373q0 12 8 12h451q4 0 4 -8q0 -27 -33 -105q-45 -113 -199 -114h-8q-147 0 -193 112q-31 74 -30 103zM924 385h452l-231 -385z" />
<glyph unicode="3" horiz-adv-x="819" d="M0 229l213 353l197 -353h-410zM410 231h409q0 -41 -12 -80.5t-37 -73.5t-63.5 -54.5t-92.5 -20.5q-53 0 -92 20.5t-63.5 53.5t-36.5 73.5t-12 81.5z" />
<glyph unicode="4" horiz-adv-x="819" d="M0 350q0 39 12.5 80t37 75t63.5 54.5t92 20.5t92 -20.5t63.5 -53.5t37 -74t12.5 -82h-410zM410 352h409l-213 -352z" />
<glyph unicode="5" horiz-adv-x="1376" d="M2 229l236 392l219 -392h-455zM459 219q0 10 6 10h446q8 0 9 -14q0 -27 -31 -102q-43 -111 -182 -111h-15q-156 2 -203 115q-31 76 -30 102zM928 229l233 392l215 -392h-448z" />
<glyph unicode="6" horiz-adv-x="1376" d="M2 393h455l-219 -391zM459 403q0 25 30 103q47 113 203 115h15q139 0 182 -111q31 -78 31 -102q0 -14 -9 -15h-446q-6 0 -6 10zM928 393h448l-215 -391z" />
<glyph unicode="7" horiz-adv-x="919" d="M2 229l236 392l219 -392h-455zM459 219q0 10 6 10h446q8 0 9 -14q0 -27 -31 -102q-43 -111 -182 -111h-15q-156 2 -203 115q-31 76 -30 102z" />
<glyph unicode="8" horiz-adv-x="919" d="M2 393h455l-219 -391zM459 403q0 25 30 103q47 113 203 115h15q139 0 182 -111q31 -78 31 -102q0 -14 -9 -15h-446q-6 0 -6 10z" />
<glyph unicode="9" d="M0 1188v41h979l-451 -578l369 -581v135h45v-203h-207v41h127l-397 612l428 533h-696v-1178h-43v1178h-154z" />
<glyph unicode=":" d="M0 1192v43h979l-451 -584l408 -557v-47l-174 -188h133v-41h-209v213h45v-137l164 178l-428 581l426 539h-696v-1190h-41v1190h-156z" />
<glyph unicode=";" horiz-adv-x="925" d="M0 1190v41h922l-236 -346l240 -301v-68l-2 2v-4l-228 -410h133v-43h-196v218l37 -3v-133l229 410l-262 332l203 305h-656v-1190h-37v1190h-147z" />
<glyph unicode="&#x3c;" horiz-adv-x="485" d="M6 657l424 574h55l-422 -578l345 -581v135h43v-205h-193v43h119z" />
<glyph unicode="=" horiz-adv-x="294" d="M0 18l59 119v1055l-59 117l20 24l72 -133v-1063l-65 -137zM203 137v1063l73 133l19 -24l-57 -117v-1055l55 -119l-23 -18z" />
<glyph unicode="&#x3e;" horiz-adv-x="1226" d="M0 360v50h352v718l-135 -92l162 205l166 -205l-139 92v-718h708l-86 129l195 -156l-197 -164l88 141h-708v-360h-54v360h-352z" />
<glyph unicode="?" horiz-adv-x="1226" d="M0 567v49h557v512l-135 -92l162 205l166 -205l-140 92v-512h504l-86 129l195 -155l-197 -164l88 141h-504v-567h-53v567h-557z" />
<glyph unicode="@" horiz-adv-x="833" d="M6 -2v31q20 8 27.5 21t7.5 44v1041q0 33 -7 47t-28 24v31h234v-31q-20 -10 -27.5 -24.5t-7.5 -46.5v-381h430v381q0 39 -7 50t-28 21v31h234v-31q-20 -10 -26.5 -21t-6.5 -50v-1041q0 -35 6 -47t27 -22v-27h-234v31q20 8 27.5 19t7.5 46v428h-430v-428q0 -35 6 -46 t29 -19v-31h-234z" />
<glyph unicode="A" horiz-adv-x="774" d="M-8 49v29q23 8 30 21.5t7 41.5v992q0 29 -7.5 43t-29.5 22v31h252v-31q-23 -8 -31 -22.5t-8 -42.5v-871h506q23 0 31 11.5t16 41.5h16v-321h-16q-8 33 -16.5 44t-30.5 11h-719z" />
<glyph unicode="B" horiz-adv-x="1241" d="M0 0v111h1241v-111h-1241zM0 295v111h1241v-111h-1241z" />
<glyph unicode="C" horiz-adv-x="1435" d="M0 283v6q2 51 26.5 97t77.5 87q103 78 263 88h22q211 0 332 -166q57 76 145 117t189 41q12 0 26.5 -1t28.5 -3q47 -6 101.5 -23.5t113.5 -50.5q111 -59 111 -188v-17q-6 -123 -111 -198q-106 -72 -227 -76h-33q-117 0 -198 40t-146 144q-61 -100 -147.5 -140t-221.5 -40 q-180 0 -270 102q-82 100 -82 181zM86 274q0 -80 84 -135q84 -53 209 -53q59 0 110.5 12.5t94.5 40.5q86 55 86 135q0 78 -86 133.5t-205 55.5q-123 0 -209 -55q-84 -55 -84 -134zM774 274q0 -80 86 -135q84 -53 207 -53t207 53q84 55 84 135q0 78 -84 134q-86 55 -207 55 t-207 -55.5t-86 -133.5z" />
<glyph unicode="D" horiz-adv-x="1036" d="M0 -4v1128h12q170 0 211 -90q39 -92 86 -92q45 0 70 90q25 92 141 92q109 0 137 -92q29 -90 82 -90t103 90q51 92 123 92q25 0 48 -12.5t23 -26.5v-59q0 -4 -4 2t-13 15.5t-23.5 16.5t-32.5 7q-39 0 -97 -92q-59 -90 -131 -90q-68 0 -104 90q-37 92 -107 92 q-72 0 -100 -90q-25 -88 -115 -92q-94 0 -112 73q-18 76 -140 101v-1063h-57z" />
<glyph unicode="E" horiz-adv-x="1024" />
<glyph unicode="F" horiz-adv-x="2048" d="M0 0v111h2042v-111h-2042z" />
<glyph unicode="G" horiz-adv-x="2048" d="M0 0v111l2048 1327v-131l-1843 -1196h1837v-111h-2042z" />
<glyph unicode="H" horiz-adv-x="2048" d="M0 0v111l2048 1327v-131l-1843 -1196h454l1389 917v-131l-1184 -786h1178v-111h-2042z" />
<glyph unicode="I" horiz-adv-x="2048" d="M4 541l2048 1327v-131l-1999 -1297q12 -84 53 -156.5t103.5 -126t141.5 -84t167 -30.5q98 0 183 37t149.5 101.5t101.5 149.5t37 183q0 4 -1 7t-1 7h84v-14q0 -98 37 -183t101.5 -149.5t149.5 -101.5t183 -37t183 37t149.5 101.5t101.5 149.5t37 183q0 4 -1 7t-1 7h41 q2 -2 2 -14q0 -106 -40 -199.5t-109.5 -163t-162.5 -109.5t-200 -40q-104 0 -195.5 38t-161 104.5t-110.5 155.5t-45 192q-4 -102 -46 -191.5t-111.5 -156t-160.5 -104.5t-194 -38q-106 0 -199.5 41t-163 112.5t-110.5 170t-41 215.5z" />
<glyph unicode="J" horiz-adv-x="2048" d="M4 541l2048 1327v-131l-1999 -1297q12 -84 53 -156.5t103.5 -126t141.5 -84t167 -30.5q98 0 183 37t149.5 101.5t101.5 149.5t37 183q0 4 -1 7t-1 7h51q0 -102 -35.5 -197t-100 -169t-155 -118t-196.5 -44l-33 2q-106 0 -199.5 41t-163 112.5t-110.5 170t-41 215.5z" />
<glyph unicode="K" horiz-adv-x="2048" d="M0 0v111h1860q-68 29 -124.5 77t-97.5 109t-63.5 134t-22.5 151q0 102 38 193t104.5 161t155.5 112t192 46v-41q-94 -4 -176 -43t-142.5 -102.5t-95.5 -147.5t-35 -178q0 -96 35 -180.5t95.5 -148t142.5 -101t176 -41.5v-111h-2042z" />
<glyph unicode="L" horiz-adv-x="2048" d="M0 0v111q94 2 177 40.5t144.5 102t96.5 148.5t35 180q0 96 -35 180t-96.5 147.5t-144.5 101.5t-177 42v41q102 -4 192.5 -46t157 -111t105.5 -160t39 -195q0 -80 -22.5 -153t-63.5 -133t-98.5 -107.5t-125.5 -77.5h1676q-68 29 -124.5 77t-97.5 109t-63.5 134t-22.5 151 q0 102 38 193t104.5 161t155.5 112t192 46v-41q-94 -4 -176 -43t-142.5 -102.5t-95.5 -147.5t-35 -178q0 -96 35 -180.5t95.5 -148t142.5 -101t176 -41.5v-111h-2042z" />
<glyph unicode="M" horiz-adv-x="2048" d="M0 0v111h1552q94 2 177 40.5t144.5 102t96.5 148.5t35 180q0 96 -35 180t-96.5 147.5t-144 101.5t-177.5 42v41q102 -4 192.5 -46t157 -111t105.5 -160t39 -195q0 -102 -39 -194.5t-105.5 -162t-156.5 -111.5t-193 -44v-70h-1552z" />
<glyph unicode="N" horiz-adv-x="2048" d="M0 0v111h1053q94 2 177 40.5t144.5 102t96 148.5t34.5 180q0 96 -34.5 180t-96 147.5t-144.5 101.5t-177 42v41q102 -4 192 -46t156.5 -111t105.5 -160t39 -195q0 -80 -22.5 -153t-63.5 -133t-98 -107.5t-125 -77.5h315q94 2 177 40.5t144.5 102t96.5 148.5t35 180 q0 96 -35 180t-96.5 147.5t-144 101.5t-177.5 42v41q102 -4 192.5 -46t157 -111t105.5 -160t39 -195q0 -102 -39 -194.5t-105.5 -162t-156.5 -111.5t-193 -44v-70h-1552z" />
<glyph unicode="O" horiz-adv-x="2048" d="M0 0v109q6 207 88 387t218 314t318.5 212t391.5 80h8q205 0 388 -78t321.5 -213t222.5 -315t92 -385v-111h-2048zM80 111h1886q-8 186 -86 352t-205 290t-295 195.5t-356 71.5h-8q-190 -2 -358.5 -74t-294 -194.5t-201.5 -287.5t-82 -353z" />
<glyph unicode="P" horiz-adv-x="2048" d="M6 416v110h543v-57q8 -88 49 -165t103.5 -134t144.5 -90t172 -33h4q92 0 173 34t143.5 91t101.5 135t47 166v53h567v-110h-534q-18 -88 -63.5 -163t-111 -130t-148.5 -86t-175 -31h-4q-92 0 -176 31t-150.5 86t-113 130t-64.5 163h-508z" />
<glyph unicode="Q" horiz-adv-x="559" d="M0 395q0 51 20.5 98.5t54.5 82t80 55t99 20.5q51 0 105.5 -20.5t99.5 -55t72.5 -82t27.5 -98.5v-37q0 -80 -35 -136t-89 -96t-119.5 -66.5t-125.5 -47.5l-26 -10q88 53 143 93t55 63q0 28 -82 28h-6h-22q-104 0 -178 51.5t-74 157.5z" />
<glyph unicode="R" horiz-adv-x="1177" d="M0 395q0 51 20.5 98.5t54.5 82t80 55t99 20.5q51 0 105.5 -20.5t99.5 -55t72.5 -82t27.5 -98.5v-37q0 -80 -35 -136t-89 -96t-119.5 -66.5t-125.5 -47.5l-26 -10q88 53 143 93t55 63q0 28 -82 28h-6h-22q-104 0 -178 51.5t-74 157.5zM618 393q0 51 20.5 98.5t54.5 82 t80 55t99 20.5q51 0 105.5 -20.5t99.5 -55t73 -82t28 -98.5v-37q0 -80 -35 -136t-89.5 -96t-120 -66.5t-124.5 -47.5l-27 -10q88 53 143.5 93t55.5 63q0 28 -82 28h-6h-23q-104 0 -178 51.5t-74 157.5z" />
<glyph unicode="S" horiz-adv-x="1183" d="M2 397q0 51 20.5 98.5t54.5 82t80 55t99 20.5q51 0 105.5 -20.5t99.5 -55t72.5 -82t27.5 -98.5v-37q0 -80 -34.5 -136t-89 -96t-120 -66.5t-124.5 -47.5l-27 -10q88 53 143.5 93t55.5 63q0 28 -83 28h-6h-22q-104 0 -178 51.5t-74 157.5zM336 993q0 51 20.5 98.5t54 82 t80 55t99.5 20.5q51 0 105.5 -20.5t99.5 -55t72.5 -82t27.5 -98.5v-37q0 -80 -35 -136t-89 -96t-119.5 -66.5t-125.5 -47.5l-26 -10q88 53 143 93t55 63q0 28 -82 28h-6h-22q-104 0 -178 51.5t-74 157.5zM621 395q0 51 20.5 98.5t54 82t79.5 55t99 20.5q51 0 105.5 -20.5 t99.5 -55t73 -82t28 -98.5v-37q0 -80 -35 -136t-89.5 -96t-120 -66.5t-124.5 -47.5l-27 -10q88 53 143.5 93t55.5 63q0 28 -82 28h-6h-23q-104 0 -177.5 51.5t-73.5 157.5z" />
<glyph unicode="T" horiz-adv-x="1193" d="M16 1040q0 51 20.5 98.5t54.5 82t80 55t99 20.5q51 0 105.5 -20.5t99.5 -55t72.5 -82t27.5 -98.5v-36q0 -80 -34.5 -136.5t-89 -96.5t-120 -66.5t-124.5 -47.5l-27 -10q88 53 143.5 93t55.5 63q0 28 -82 28h-6h-23q-104 0 -178 51.5t-74 157.5zM297 463q0 51 20.5 98 t54.5 82t80 55.5t99 20.5q51 0 105.5 -20.5t99.5 -55.5t72.5 -82t27.5 -98v-37q0 -80 -35 -136.5t-89 -96t-119.5 -66.5t-125.5 -47l-26 -10q88 53 143 93t55 62q0 29 -88 29h-22q-104 0 -178 51t-74 158zM360 1622q0 51 20.5 98t54.5 82t80 55.5t99 20.5q51 0 105.5 -20.5 t99.5 -55.5t73 -82t28 -98v-37q0 -80 -35 -136t-89.5 -96t-120 -66.5t-124.5 -47.5l-27 -10q88 53 143.5 93t55.5 62q0 29 -88 29h-23q-104 0 -178 51.5t-74 157.5zM635 1038q0 51 20.5 98.5t54 82t80 55t99.5 20.5q51 0 105.5 -20.5t99.5 -55t72.5 -82t27.5 -98.5v-37 q0 -80 -35 -136t-89 -96t-119.5 -66.5t-125.5 -47.5l-26 -10q88 53 143 93t55 63q0 28 -82 28h-6h-22q-104 0 -178 51.5t-74 157.5z" />
<glyph unicode="U" horiz-adv-x="1241" d="M-6 584v110h1241v-110h-1241zM0 0v111h1241v-111h-1241zM0 295v111h1241v-111h-1241z" />
<glyph unicode="V" horiz-adv-x="493" d="M0 233q0 49 19.5 92.5t52 75t78 50t96.5 18.5t96 -18.5t79 -50t53.5 -75t19.5 -92.5t-19.5 -91t-53.5 -73.5t-79 -50t-96 -18.5t-96.5 18.5t-78 50t-52 73.5t-19.5 91z" />
<glyph unicode="W" horiz-adv-x="1060" d="M0 233q0 49 19.5 92.5t52 75t78 50t96.5 18.5t96 -18.5t79 -50t53.5 -75t19.5 -92.5t-19.5 -91t-53.5 -73.5t-79 -50t-96 -18.5t-96.5 18.5t-78 50t-52 73.5t-19.5 91zM567 233q0 49 19.5 92.5t52.5 75t78 50t96 18.5t96 -18.5t79 -50t53.5 -75t19.5 -92.5t-19.5 -91 t-53.5 -73.5t-79 -50t-96 -18.5t-96 18.5t-78 50t-52.5 73.5t-19.5 91z" />
<glyph unicode="X" horiz-adv-x="1060" d="M0 233q0 49 19.5 92.5t52 75t78 50t96.5 18.5t96 -18.5t79 -50t53.5 -75t19.5 -92.5t-19.5 -91t-53.5 -73.5t-79 -50t-96 -18.5t-96.5 18.5t-78 50t-52 73.5t-19.5 91zM276 698q0 49 19.5 92.5t52.5 75t78 50t96 18.5t96.5 -18.5t79 -50t53 -75t19.5 -92.5t-19.5 -91 t-53 -73.5t-79 -50t-96.5 -18.5t-96 18.5t-78 50t-52.5 73.5t-19.5 91zM567 233q0 49 19.5 92.5t52.5 75t78 50t96 18.5t96 -18.5t79 -50t53.5 -75t19.5 -92.5t-19.5 -91t-53.5 -73.5t-79 -50t-96 -18.5t-96 18.5t-78 50t-52.5 73.5t-19.5 91z" />
<glyph unicode="Y" horiz-adv-x="1062" d="M0 707q0 49 19.5 92t52 74.5t78 50t96.5 18.5t96 -18.5t79 -50t53.5 -74.5t19.5 -92t-19.5 -91.5t-53.5 -74t-79 -50t-96 -18.5t-96.5 18.5t-78 50t-52 73.5t-19.5 92zM276 233q0 49 19.5 92.5t52.5 75t78 50t96 18.5t96.5 -18.5t79 -50t53 -75t19.5 -92.5t-19.5 -91 t-53 -73.5t-79 -50t-96.5 -18.5t-96 18.5t-78 50t-52.5 73.5t-19.5 91zM276 1171q0 49 19.5 92.5t52.5 75t78 50t96 18.5t96.5 -18.5t79 -50t53 -75t19.5 -92.5t-19.5 -91t-53 -73.5t-79 -50t-96.5 -18.5t-96 18.5t-78 50t-52.5 73.5t-19.5 91zM567 707q0 49 19.5 92 t52.5 74.5t78 50t96 18.5t96 -18.5t79 -50t53.5 -74.5t19.5 -92t-19.5 -91.5t-53.5 -74t-79 -50t-96 -18.5t-96 18.5t-78 50t-52.5 73.5t-19.5 92z" />
<glyph unicode="Z" horiz-adv-x="1052" d="M-10 932h1052l-522 -930zM57 891l463 -817l451 817h-914zM264 1339q0 49 19.5 92.5t52.5 75t78 50t96 18.5t96 -18.5t79 -50t53.5 -75t19.5 -92.5t-19.5 -91t-53.5 -73.5t-79 -50t-96 -18.5t-96 18.5t-78 50t-52.5 73.5t-19.5 91z" />
<glyph unicode="[" horiz-adv-x="1052" d="M-10 932h1052l-522 -930l-315 549h-2v4zM57 891l115 -176h696l103 176h-914zM250 551l270 -477l262 477h-532zM276 1356q0 49 19.5 92t52.5 74.5t78 50t96 18.5t96.5 -18.5t79 -50t53 -74.5t19.5 -92t-19.5 -91t-53 -74t-79 -50.5t-96.5 -18.5t-96 18.5t-78 50.5 t-52.5 74t-19.5 91z" />
<glyph unicode="\" horiz-adv-x="1052" d="M-10 932l530 -930l522 930h-1052zM57 891h914l-451 -817zM113 1124l405 611l402 -611h-807zM211 1171h610l-303 502z" />
<glyph unicode="]" horiz-adv-x="1052" d="M-12 932h1054l-522 -930l-315 549h-2v4zM57 891l115 -176h696l103 176h-914zM113 1120l405 611l402 -611h-807zM211 1167h610l-303 502zM250 551l270 -477l262 477h-532z" />
<glyph unicode="^" horiz-adv-x="1638" d="M2 0l821 1237l811 -1237h-1632zM203 92h1235l-615 1018z" />
<glyph unicode="_" horiz-adv-x="1638" d="M2 887h1632l-811 -887zM203 793l620 -666l615 666h-1235z" />
<glyph unicode="`" horiz-adv-x="1638" d="M2 0l821 885l811 -885h-1632z" />
<glyph unicode="a" horiz-adv-x="1638" d="M2 0l395 594h-395v41h422l399 602l394 -602h423v-41h-397l391 -594h-1632zM203 92h1235l-303 502h-627zM532 635h578l-287 475z" />
<glyph unicode="b" horiz-adv-x="1843" d="M0 0v1024h1843v-1024h-1843zM41 41h1761v942h-1761v-942z" />
<glyph unicode="c" horiz-adv-x="1843" d="M0 0v1024h1843v-1024h-1843zM41 41h1761v942h-1761v-942z" />
<glyph unicode="d" horiz-adv-x="1302" d="M6 172l285 180l18 -39l-186 -118h1069l-186 114l18 37l285 -168l-285 -180l-18 37l186 121h-1069l186 -117l-18 -37z" />
<glyph unicode="e" horiz-adv-x="1024" d="M0 461l162 10q6 -59 33.5 -102t75.5 -71t113 -43t142 -17v354q-14 4 -27.5 6t-29.5 6q-92 16 -155.5 32.5t-106.5 36t-70.5 41t-50.5 48.5q-41 59 -41 123q0 61 32 113.5t91 89t144 58t192 21.5h22v338l-114 -260l-37 27l168 395l182 -395l-39 -27l-119 260l-2 -340 q193 -12 303.5 -92t120.5 -209l-164 -8q-23 172 -260 191v-324q78 -14 130.5 -26.5t86.5 -22.5q244 -72 244 -254q0 -63 -32.5 -117.5t-93 -94.5t-145.5 -63.5t-190 -27.5v-115h-39v115q-121 0 -217 23.5t-163.5 68.5t-105.5 108.5t-40 143.5zM211 897q0 -66 57 -96 q55 -35 248 -68q2 -2 10 -2v318h-16q-147 0 -223 -42t-76 -110zM565 238q141 4 218 51t77 119q0 92 -125 135q-25 8 -66.5 18t-103.5 23v-346z" />
<glyph unicode="f" horiz-adv-x="1052" d="M-12 932h1054l-522 -930zM53 1403v29h428l-317 393h51l305 -377l346 377h47l-354 -393h428v-29h-428l354 -395h-47l-346 378l-305 -378h-51l319 395h-430zM57 891l463 -817l451 817h-914z" />
<glyph unicode="g" horiz-adv-x="1052" d="M-12 932h1054l-522 -930l-315 549h-2v4zM53 1403v29h428l-317 393h51l305 -377l346 377h47l-354 -393h428v-29h-428l354 -395h-47l-346 378l-305 -378h-51l319 395h-430zM57 891l115 -176h696l103 176h-914zM250 551l270 -477l262 477h-532z" />
<glyph unicode="h" horiz-adv-x="931" d="M-2 393v29h428l-317 393h51l305 -377l346 377h47l-354 -393h428v-29h-428l354 -395h-47l-346 379l-305 -379h-51l319 395h-430z" />
<glyph unicode="i" horiz-adv-x="1843" d="M-2 350v25h381l-283 350h45l273 -336l307 336h41l-313 -350h378v-25h-378l313 -352h-41l-307 336l-273 -336h-45l285 352h-383zM1018 350v27h381l-283 350h45l271 -336l309 336h41l-316 -350h381v-27h-381l316 -350h-41l-309 336l-271 -336h-45l283 350h-381z" />
<glyph unicode="j" horiz-adv-x="1843" d="M-2 350v25h381l-283 350h45l273 -336l307 336h41l-313 -350h378v-25h-378l313 -352h-41l-307 336l-273 -336h-45l285 352h-383zM504 1169v27h381l-283 350h45l271 -336l309 336h41l-316 -350h381v-27h-381l316 -350h-41l-309 336l-271 -336h-45l283 350h-381zM1018 350 v27h381l-283 350h45l271 -336l309 336h41l-316 -350h381v-27h-381l316 -350h-41l-309 336l-271 -336h-45l283 350h-381z" />
<glyph unicode="k" horiz-adv-x="1843" d="M-6 1096v24h381l-283 350h45l273 -335l307 335h41l-314 -350h379v-24h-379l320 -355h-41l-313 338l-267 -338h-45l279 355h-383zM494 1819v26h380l-282 350h45l270 -335l310 335h40l-315 -350h381v-26h-381l315 -351h-40l-310 336l-270 -336h-45l282 351h-380zM510 352 v27h381l-283 350h45l271 -336l309 336h41l-316 -350h381v-27h-381l316 -350h-41l-309 336l-271 -336h-45l283 350h-381zM1014 1096v26h381l-283 351h45l270 -336l310 336h41l-316 -351h381v-26h-381l322 -353h-41l-316 338l-264 -338h-45l277 353h-381z" />
<glyph unicode="l" horiz-adv-x="937" d="M4 391v29h428l-317 393h51l305 -377l346 377h47l-354 -393h428v-29h-428l354 -395h-47l-346 379l-305 -379h-51l319 395h-430zM180 1214q0 61 23.5 115.5t64.5 95.5t96.5 64.5t118.5 23.5q61 0 116.5 -23.5t96.5 -64.5t64.5 -95t23.5 -116q0 -61 -23.5 -116.5t-64.5 -95 t-96 -63.5t-117 -24q-63 0 -118.5 24t-96.5 63.5t-64.5 95t-23.5 116.5zM203 1214q0 -57 22.5 -107t60.5 -87t89 -58.5t108 -21.5t107.5 21.5t88.5 58.5t59.5 87t21.5 107t-21.5 107.5t-59.5 88.5t-88 59.5t-108 21.5q-57 0 -108 -21.5t-89 -59.5t-60.5 -88.5t-22.5 -107.5z " />
<glyph unicode="m" horiz-adv-x="1243" d="M4 295q0 61 23.5 115.5t64.5 95.5t96.5 64.5t118.5 23.5q61 0 116.5 -23.5t96.5 -64.5t64.5 -95.5t23.5 -115.5t-23.5 -116.5t-64.5 -95.5t-96 -63.5t-117 -23.5q-63 0 -118.5 23.5t-96.5 63.5t-64.5 95.5t-23.5 116.5zM27 295q0 -57 22.5 -107.5t60 -87.5t89 -58.5 t108.5 -21.5t107.5 21.5t88.5 58.5t59.5 87.5t21.5 107.5t-21.5 107.5t-59.5 88t-88 59t-108 21.5q-57 0 -108.5 -21.5t-89 -59t-60 -88t-22.5 -107.5zM639 293q0 61 23.5 115.5t64.5 95.5t96.5 64.5t118.5 23.5q61 0 116.5 -23.5t96.5 -64.5t64.5 -95.5t23.5 -115.5 t-23.5 -116.5t-64.5 -95.5t-96 -63.5t-117 -23.5q-63 0 -118.5 23.5t-96.5 63.5t-64.5 95.5t-23.5 116.5zM662 293q0 -57 22.5 -107.5t60 -87.5t89 -58.5t108.5 -21.5t107.5 21.5t88.5 58.5t59.5 87.5t21.5 107.5t-21.5 107.5t-59.5 88t-88.5 59t-107.5 21.5t-108.5 -21.5 t-89 -59t-60 -88t-22.5 -107.5z" />
<glyph unicode="n" horiz-adv-x="1243" d="M4 295q0 61 23.5 115.5t64.5 95.5t96.5 64.5t118.5 23.5q61 0 116.5 -23.5t96.5 -64.5t64.5 -95.5t23.5 -115.5t-23.5 -116.5t-64.5 -95.5t-96 -63.5t-117 -23.5q-63 0 -118.5 23.5t-96.5 63.5t-64.5 95.5t-23.5 116.5zM27 295q0 -57 22.5 -107.5t60 -87.5t89 -58.5 t108.5 -21.5t107.5 21.5t88.5 58.5t59.5 87.5t21.5 107.5t-21.5 107.5t-59.5 88t-88 59t-108 21.5q-57 0 -108.5 -21.5t-89 -59t-60 -88t-22.5 -107.5zM328 852q0 61 23.5 115.5t64.5 95.5t96 64.5t119 23.5q61 0 116.5 -23.5t96.5 -64.5t64.5 -95.5t23.5 -115.5 t-23.5 -116.5t-64.5 -95.5t-96.5 -63.5t-116.5 -23.5q-63 0 -118.5 23.5t-96.5 63.5t-64.5 95.5t-23.5 116.5zM350 852q0 -57 22.5 -107.5t60.5 -87t89 -58t109 -21.5q57 0 107 21.5t88 58t59.5 87t21.5 107.5t-21.5 107.5t-59.5 88t-88 59t-107 21.5t-108.5 -21.5 t-89.5 -59t-60.5 -88t-22.5 -107.5zM639 293q0 61 23.5 115.5t64.5 95.5t96.5 64.5t118.5 23.5q61 0 116.5 -23.5t96.5 -64.5t64.5 -95.5t23.5 -115.5t-23.5 -116.5t-64.5 -95.5t-96 -63.5t-117 -23.5q-63 0 -118.5 23.5t-96.5 63.5t-64.5 95.5t-23.5 116.5zM662 293 q0 -57 22.5 -107.5t60 -87.5t89 -58.5t108.5 -21.5t107.5 21.5t88.5 58.5t59.5 87.5t21.5 107.5t-21.5 107.5t-59.5 88t-88.5 59t-107.5 21.5t-108.5 -21.5t-89 -59t-60 -88t-22.5 -107.5z" />
<glyph unicode="o" horiz-adv-x="1243" d="M6 854q0 61 23.5 115.5t64.5 95.5t96.5 64.5t118.5 23.5q61 0 116.5 -23.5t96.5 -64.5t64.5 -95.5t23.5 -115.5t-23.5 -116.5t-64.5 -95.5t-96 -63.5t-117 -23.5q-63 0 -118.5 23.5t-96.5 63.5t-64.5 95.5t-23.5 116.5zM29 854q0 -57 22.5 -107.5t60.5 -87t89 -58 t108 -21.5t107.5 21.5t88.5 58t59.5 87t21.5 107.5t-21.5 107.5t-59.5 88t-88 59t-108 21.5q-57 0 -108 -21.5t-89 -59t-60.5 -88t-22.5 -107.5zM324 293q0 61 23.5 115.5t64.5 95.5t96 64.5t119 23.5q61 0 116.5 -23.5t96.5 -64.5t64.5 -95.5t23.5 -115.5t-23.5 -116.5 t-64.5 -95.5t-96.5 -63.5t-116.5 -23.5q-63 0 -118.5 23.5t-96.5 63.5t-64.5 95.5t-23.5 116.5zM330 1411q0 61 23.5 115.5t64.5 95.5t96 64.5t119 23.5q61 0 116.5 -23.5t96.5 -64.5t64.5 -95t23.5 -116q0 -61 -23.5 -116.5t-64.5 -95.5t-96.5 -63.5t-116.5 -23.5 q-63 0 -118.5 23.5t-96.5 63.5t-64.5 95.5t-23.5 116.5zM346 293q0 -57 22.5 -107.5t60.5 -87.5t89 -58.5t109 -21.5q57 0 107 21.5t88 58.5t59.5 87.5t21.5 107.5t-21.5 107.5t-59.5 88t-88 59t-107 21.5t-108.5 -21.5t-89.5 -59t-60.5 -88t-22.5 -107.5zM352 1411 q0 -57 22.5 -107.5t60.5 -87t89 -58t109 -21.5q57 0 107.5 21.5t88 58t59 87t21.5 107.5t-21.5 107.5t-59 88.5t-88 59.5t-107.5 21.5t-108.5 -21.5t-89.5 -59.5t-60.5 -88.5t-22.5 -107.5zM641 852q0 61 23.5 115.5t64.5 95.5t96.5 64.5t118.5 23.5q61 0 116.5 -23.5 t96.5 -64.5t64.5 -95.5t23.5 -115.5t-23.5 -116.5t-64.5 -95.5t-96 -63.5t-117 -23.5q-63 0 -118.5 23.5t-96.5 63.5t-64.5 95.5t-23.5 116.5zM664 852q0 -57 22.5 -107.5t60 -87t89 -58t108.5 -21.5t107.5 21.5t88.5 58t59.5 87t21.5 107.5t-21.5 107.5t-59.5 88t-88.5 59 t-107.5 21.5t-108.5 -21.5t-89 -59t-60 -88t-22.5 -107.5z" />
<glyph unicode="p" horiz-adv-x="1640" d="M0 819q0 338 240 582q243 244 579 244q332 0 578 -246q242 -240 241 -580q0 -344 -241 -583q-244 -240 -578 -240q-338 0 -579 237q-123 123 -181.5 268.5t-58.5 317.5zM66 819q0 -309 217 -528q219 -219 532 -219q309 0 526 217q223 221 224 530q0 309 -224 533 q-221 221 -526 221q-313 0 -530 -223q-219 -225 -219 -531z" />
<glyph unicode="q" horiz-adv-x="1640" d="M0 819v8q0 166 55 309.5t174 262.5q123 123 266.5 180t317.5 59h8q338 0 572 -233q248 -244 247 -586q-2 -174 -58 -316.5t-175 -260.5q-240 -240 -580 -244q-342 0 -583 238q-244 244 -244 583zM70 772q12 -280 219 -487q211 -205 483 -217v1495q-289 -10 -491 -215 q-51 -53 -90 -110.5t-66 -127.5t-41 -153t-14 -185zM858 68q141 10 265.5 65.5t224.5 159.5q96 98 150 227t65 326q-6 293 -220 506q-104 98 -224 152.5t-261 60.5v-1497z" />
<glyph unicode="r" horiz-adv-x="1640" d="M0 819v8q0 166 55 309.5t174 262.5q123 123 266.5 180t317.5 59h8q338 0 572 -233q248 -244 247 -586q-2 -174 -58 -316.5t-175 -260.5q-240 -240 -580 -244q-342 0 -583 238q-244 244 -244 583zM66 846l4 -74q12 -281 219 -487q104 -102 235 -156.5t334 -60.5 q141 10 265 65t225 160q195 199 213 479h-789v791q-289 -10 -491 -215q-207 -209 -215 -502z" />
<glyph unicode="s" horiz-adv-x="1640" d="M0 819v8q0 166 55 309.5t174 262.5q123 123 266.5 180t317.5 59h8q338 0 572 -233q248 -244 247 -586q-2 -174 -58 -316.5t-175 -260.5q-240 -240 -580 -244q-342 0 -583 238q-244 244 -244 583zM66 846l4 -74q12 -281 219 -487q211 -205 483 -217v1495 q-289 -10 -491 -215q-207 -209 -215 -502zM858 68q141 10 265.5 65.5t224.5 159.5q195 199 213 479h-703v-704z" />
<glyph unicode="t" horiz-adv-x="1640" d="M0 819v8q0 166 55 309.5t174 262.5q123 123 266.5 180t317.5 59h8q338 0 572 -233q248 -244 247 -586q-2 -174 -58 -316.5t-175 -260.5q-240 -240 -580 -244q-342 0 -583 238q-244 244 -244 583zM70 807q6 -143 60.5 -280.5t158.5 -241.5q211 -205 483 -217v1495 q-289 -10 -491 -215q-104 -104 -156.5 -248t-54.5 -293z" />
<glyph unicode="u" horiz-adv-x="1640" d="M0 819v8q0 166 55 309.5t174 262.5q123 123 266.5 180t317.5 59h8q338 0 572 -233q248 -244 247 -586q-2 -174 -58 -316.5t-175 -260.5q-240 -240 -580 -244q-342 0 -583 238q-244 244 -244 583zM66 846h706v717q-288 -10 -491 -215q-207 -209 -215 -502zM70 772 q12 -280 219 -487q211 -205 483 -217v704h-702z" />
<glyph unicode="v" horiz-adv-x="1640" d="M0 819v8q0 166 55 309.5t174 262.5q123 123 266.5 180t317.5 59h8q338 0 572 -233q248 -244 247 -586q-2 -174 -58 -316.5t-175 -260.5q-240 -240 -580 -244q-342 0 -583 238q-244 244 -244 583zM66 846h706v717q-288 -10 -491 -215q-207 -209 -215 -502z" />
<glyph unicode="w" horiz-adv-x="1640" d="M0 819q0 338 240 582q243 244 579 244q332 0 578 -246q242 -240 241 -580q0 -344 -241 -583q-244 -240 -578 -240q-338 0 -579 237q-123 123 -181.5 268.5t-58.5 317.5zM737 92h164v1452h-164v-1452z" />
<glyph unicode="x" horiz-adv-x="1640" d="M0 819q0 338 240 582q244 244 579 244q332 0 578 -246q241 -240 241 -580q0 -344 -241 -583q-244 -238 -578 -238q-338 0 -579 235q-123 123 -181.5 267.5t-58.5 318.5z" />
<glyph unicode="y" horiz-adv-x="1640" d="M0 819q0 338 240 582q244 244 579 244q332 0 578 -246q241 -240 241 -580q0 -344 -241 -583q-244 -238 -578 -238q-338 0 -579 235q-123 123 -181.5 267.5t-58.5 318.5zM66 819q0 -293 194 -506l492 496l-496 510q-190 -213 -190 -500zM313 1378l496 -512l506 510 q-215 197 -500 197q-289 0 -502 -195zM317 256q209 -184 498 -184q274 0 481 176l-489 502zM864 809l492 -506q209 215 209 516q0 289 -193 500z" />
<glyph unicode="z" horiz-adv-x="1640" d="M0 819q0 338 240 582q244 244 579 244q332 0 578 -246q241 -240 241 -580q0 -344 -241 -583q-244 -238 -578 -238q-338 0 -579 235q-123 123 -181.5 267.5t-58.5 318.5zM66 819q0 -311 217 -528q219 -219 532 -219q309 0 526 217q224 221 224 530t-224 533 q-221 221 -526 221q-313 0 -530 -223q-219 -225 -219 -531zM352 315v945h187l225 -670q16 -47 26.5 -82t18.5 -57q8 27 21.5 63.5t29.5 87.5l225 658h170v-945h-120v791l-277 -791h-113l-272 803v-803h-121z" />
<glyph unicode="{" horiz-adv-x="1640" d="M0 819q0 338 240 582q244 244 579 244q332 0 578 -246q241 -240 241 -580q0 -344 -241 -583q-244 -238 -578 -238q-338 0 -579 235q-123 123 -181.5 267.5t-58.5 318.5zM66 819q0 -311 217 -528q219 -219 532 -219q309 0 526 217q224 221 224 530t-224 533 q-221 221 -526 221q-313 0 -530 -223q-219 -225 -219 -531zM233 819q0 238 168 406q170 170 408 170q233 0 403 -170q170 -177 170 -406q0 -240 -170 -409.5t-403 -169.5q-238 0 -408 170q-168 166 -168 409zM303 815q0 -215 148 -362q152 -152 364 -152q205 0 354.5 149.5 t149.5 364.5q0 213 -150 363q-147 147 -354 147q-215 0 -362 -149q-150 -150 -150 -361z" />
<glyph unicode="|" horiz-adv-x="1640" d="M0 819v8q0 166 55.5 309.5t173.5 262.5q123 123 266.5 180t317.5 59h8q338 0 572 -233q247 -242 247 -586q-2 -174 -58 -316.5t-175 -260.5q-240 -240 -580 -242q-342 0 -583 236q-244 244 -244 583zM66 846h706v717q-289 -10 -491 -215q-205 -209 -215 -502zM70 772 q12 -281 219 -487q211 -205 483 -217v704h-702zM858 68q141 10 265 65t225 160q195 201 213 479h-703v-704zM858 846h705q-6 293 -220 506q-104 98 -224 152.5t-261 60.5v-719z" />
<glyph unicode="}" horiz-adv-x="1423" d="M2 178l303 191v-142h815v142l303 -189l-303 -180v141h-815v-141z" />
<glyph unicode="&#xa1;" horiz-adv-x="1843" d="M147 459q0 51 20.5 98t54.5 82t80 55.5t99 20.5q51 0 105.5 -20.5t99.5 -55.5t73 -82t28 -98v-37q0 -80 -35 -136.5t-89.5 -96t-120 -66.5t-124.5 -47l-27 -10q88 53 143.5 93t55.5 62q0 29 -88 29h-23q-104 0 -178 51.5t-74 157.5zM1817 410v20h26v-20h-26z" />
<glyph unicode="&#xa2;" horiz-adv-x="1843" d="M2 406q0 86 32 159.5t87 129t129 87t160 31.5q123 0 218 -61.5t146 -165.5q18 -29 65.5 -87.5t107 -127t124 -136t119.5 -114.5q49 -41 111.5 -65.5t132.5 -24.5q78 0 146.5 29.5t118.5 79.5t79.5 119t29.5 147q0 100 -47 183t-125 132l2 39q92 -53 147.5 -145t55.5 -209 q0 -86 -31.5 -160t-87 -129.5t-129 -86t-159.5 -30.5q-152 0 -267 96q-18 18 -63 61.5t-103.5 106t-125 139t-127.5 162.5q-47 98 -136.5 156.5t-201.5 58.5q-78 0 -146.5 -29.5t-119 -79.5t-80 -119t-29.5 -146q0 -104 52 -189.5t138 -134.5l-2 -39q-98 49 -159.5 144.5 t-61.5 218.5z" />
<glyph unicode="&#xa3;" horiz-adv-x="1843" d="M6 410q0 86 32 159.5t87 129t129 87t160 31.5q123 0 218 -61.5t146 -165.5q18 -29 65.5 -87.5t107 -127t124 -136t119.5 -114.5q49 -41 111.5 -65.5t132.5 -24.5q78 0 146.5 29.5t118.5 80t79.5 119t29.5 146.5q0 100 -47 183t-125 132l2 39q92 -53 147.5 -145t55.5 -209 q0 -86 -31.5 -160t-87 -129t-129 -87t-159.5 -32q-154 0 -267 98q-18 18 -63 61.5t-103.5 106t-125 139t-127.5 162.5q-47 98 -136.5 156.5t-201.5 58.5q-78 0 -146.5 -29.5t-119 -79.5t-80 -119t-29.5 -146q0 -104 52 -189.5t138 -134.5l-2 -39q-98 49 -159.5 144.5 t-61.5 218.5zM152 463q0 51 20.5 98t54 82t79.5 55.5t100 20.5q51 0 105 -20.5t99 -55.5t73 -82t28 -98v-37q0 -80 -35 -136.5t-89.5 -96t-120 -66.5t-124.5 -47l-27 -10q88 53 143.5 93t55.5 62q0 29 -88 29h-23q-104 0 -177.5 51.5t-73.5 157.5z" />
<glyph unicode="&#xa4;" horiz-adv-x="1843" d="M6 410q0 86 32 159.5t87 129t129 87t160 31.5q123 0 218 -61.5t146 -165.5q18 -29 65.5 -87.5t107 -127t124 -136t119.5 -114.5q49 -41 111.5 -65.5t132.5 -24.5q78 0 146.5 29.5t118.5 80t79.5 119t29.5 146.5q0 100 -47 183t-125 132l2 39q92 -53 147.5 -145t55.5 -209 q0 -86 -31.5 -160t-87 -129t-129 -87t-159.5 -32q-154 0 -267 98q-18 18 -63 61.5t-103.5 106t-125 139t-127.5 162.5q-47 98 -136.5 156.5t-201.5 58.5q-78 0 -146.5 -29.5t-119 -79.5t-80 -119t-29.5 -146q0 -104 52 -189.5t138 -134.5l-2 -39q-98 49 -159.5 144.5 t-61.5 218.5zM1171 467q0 51 20.5 98t54.5 82t80 55.5t99 20.5q51 0 105.5 -20.5t99.5 -55.5t73 -82t28 -98v-37q0 -80 -35 -136t-89.5 -96t-120 -67t-124.5 -47l-27 -10q88 53 143.5 93t55.5 62q0 29 -88 29h-23q-104 0 -178 51.5t-74 157.5z" />
<glyph unicode="&#xa5;" horiz-adv-x="1843" d="M152 463q0 51 20.5 98t54 82t79.5 55.5t100 20.5q51 0 105 -20.5t99 -55.5t73 -82t28 -98v-37q0 -80 -35 -136.5t-89.5 -96t-120 -66.5t-124.5 -47l-27 -10q88 53 143.5 93t55.5 62q0 29 -88 29h-23q-104 0 -177.5 51.5t-73.5 157.5zM1171 467q0 51 20.5 98t54.5 82 t80 55.5t99 20.5q51 0 105.5 -20.5t99.5 -55.5t73 -82t28 -98v-37q0 -80 -35 -136t-89.5 -96t-120 -67t-124.5 -47l-27 -10q88 53 143.5 93t55.5 62q0 29 -88 29h-23q-104 0 -178 51.5t-74 157.5z" />
<glyph unicode="&#xa6;" horiz-adv-x="1843" d="M6 410q0 86 32 159.5t87 129t129 87t160 31.5q123 0 218 -61.5t146 -165.5q18 -29 65.5 -87.5t107 -127t124 -136t119.5 -114.5q49 -41 111.5 -65.5t132.5 -24.5q78 0 146.5 29.5t118.5 80t79.5 119t29.5 146.5q0 100 -47 183t-125 132l2 39q92 -53 147.5 -145t55.5 -209 q0 -86 -31.5 -160t-87 -129t-129 -87t-159.5 -32q-154 0 -267 98q-18 18 -63 61.5t-103.5 106t-125 139t-127.5 162.5q-47 98 -136.5 156.5t-201.5 58.5q-78 0 -146.5 -29.5t-119 -79.5t-80 -119t-29.5 -146q0 -104 52 -189.5t138 -134.5l-2 -39q-98 49 -159.5 144.5 t-61.5 218.5z" />
<glyph unicode="&#xa7;" horiz-adv-x="1843" d="M2 406q0 86 32 159.5t87 129t129 87t160 31.5q123 0 218 -61.5t146 -165.5q18 -29 65.5 -87.5t107 -127t124 -136t119.5 -114.5q49 -41 111.5 -65.5t132.5 -24.5q78 0 146.5 29.5t118.5 79.5t79.5 119t29.5 147q0 100 -47 183t-125 132l2 39q92 -53 147.5 -145t55.5 -209 q0 -86 -31.5 -160t-87 -129.5t-129 -86t-159.5 -30.5q-152 0 -267 96q-18 18 -63 61.5t-103.5 106t-125 139t-127.5 162.5q-47 98 -136.5 156.5t-201.5 58.5q-78 0 -146.5 -29.5t-119 -79.5t-80 -119t-29.5 -146q0 -104 52 -189.5t138 -134.5l-2 -39q-98 49 -159.5 144.5 t-61.5 218.5zM147 459q0 51 20.5 98t54.5 82t80 55.5t99 20.5q51 0 105.5 -20.5t99.5 -55.5t73 -82t28 -98v-37q0 -80 -35 -136.5t-89.5 -96t-120 -66.5t-124.5 -47l-27 -10q88 53 143.5 93t55.5 62q0 29 -88 29h-23q-104 0 -178 51.5t-74 157.5zM1167 463q0 51 20.5 98 t54.5 82t80 55.5t99 20.5q51 0 105.5 -20.5t99.5 -55.5t72.5 -82t27.5 -98v-37q0 -80 -34.5 -136.5t-89 -96t-120 -66.5t-124.5 -47l-27 -10q88 53 143.5 93t55.5 62q0 29 -88 29h-23q-104 0 -178 51.5t-74 157.5z" />
<glyph unicode="&#xa8;" horiz-adv-x="1843" d="M152 381q0 55 20.5 104.5t56 85t83.5 57t104 21.5q55 0 103 -21.5t84 -57t56.5 -85t20.5 -104.5t-20.5 -103.5t-56.5 -84t-84 -57t-103 -21.5t-103.5 21.5t-84 57t-56 84t-20.5 103.5z" />
<glyph unicode="&#xa9;" horiz-adv-x="1843" d="M2 408q0 86 32 159.5t87 129t129 87t160 31.5q123 0 218 -61.5t146 -165.5q18 -29 65.5 -87.5t107 -127t124 -136t119.5 -114.5q49 -41 111.5 -65.5t132.5 -24.5q78 0 146.5 29.5t118.5 80t79.5 119t29.5 146.5q0 100 -47 183t-125 132l2 39q92 -53 147.5 -145t55.5 -209 q0 -86 -31.5 -160t-87 -129.5t-129 -87t-159.5 -31.5q-154 0 -267 98q-18 18 -63 61.5t-103.5 106t-125 139t-127.5 162.5q-47 98 -136.5 156.5t-201.5 58.5q-78 0 -146.5 -29.5t-119 -79.5t-80 -119t-29.5 -146q0 -104 52 -189.5t138 -134.5l-2 -39q-98 49 -159.5 144.5 t-61.5 218.5z" />
<glyph unicode="&#xaa;" horiz-adv-x="1843" d="M0 406q0 86 31.5 159.5t87 129t129.5 87t160 31.5q123 0 218 -61.5t146 -165.5q18 -29 65.5 -87.5t107 -127t124 -136t119.5 -114.5q49 -41 111.5 -65.5t132.5 -24.5q78 0 146.5 29.5t118.5 79.5t79.5 119t29.5 147q0 100 -47 183t-125 132l2 39q92 -53 147.5 -145 t55.5 -209q0 -86 -31.5 -160t-87 -129.5t-129 -86t-159.5 -30.5q-152 0 -267 96q-18 18 -63 61.5t-103.5 106t-125 139t-128.5 162.5q-47 98 -136 156.5t-201 58.5q-78 0 -146.5 -29.5t-119 -79.5t-80 -119t-29.5 -146q0 -104 52 -189.5t138 -134.5l-2 -39 q-98 49 -159.5 144.5t-61.5 218.5zM152 381q0 55 20.5 104.5t56 85t83.5 57t104 21.5q55 0 103 -21.5t84 -57t56.5 -85t20.5 -104.5t-20.5 -103.5t-56.5 -84t-84 -57t-103 -21.5t-103.5 21.5t-84 57t-56 84t-20.5 103.5z" />
<glyph unicode="&#xab;" horiz-adv-x="1843" d="M147 381q0 55 20.5 104.5t56.5 85t84 57t104 21.5q55 0 103 -21.5t84 -57t56.5 -85t20.5 -104.5t-20.5 -103.5t-56.5 -84t-84 -57t-103 -21.5t-103.5 21.5t-84.5 57t-56.5 84t-20.5 103.5zM1167 389q0 55 20.5 104.5t56.5 85t84 57t104 21.5q55 0 103 -21.5t84 -57 t56.5 -85t20.5 -104.5t-20.5 -103t-56.5 -84t-84 -57.5t-103 -21.5t-103.5 21.5t-84.5 57.5t-56.5 84t-20.5 103z" />
<glyph unicode="&#xac;" horiz-adv-x="1843" d="M2 414q0 86 32 159.5t87 129t129 87t160 31.5q123 0 218 -61.5t146 -165.5q18 -29 65.5 -87t107 -127t124 -136.5t119.5 -114.5q49 -41 111.5 -65.5t132.5 -24.5q78 0 146.5 29.5t118.5 80t79.5 119t29.5 146.5q0 100 -47 183t-125 132l2 39q92 -53 147.5 -145t55.5 -209 q0 -86 -31.5 -160t-87 -129t-129 -87t-159.5 -32q-154 0 -267 98q-18 18 -63 61.5t-103.5 106t-125 139t-127.5 162.5q-47 98 -136.5 156.5t-201.5 58.5q-78 0 -146.5 -29.5t-119 -79.5t-80 -118.5t-29.5 -146.5q0 -104 52 -189.5t138 -134.5l-2 -39q-98 49 -159.5 144.5 t-61.5 218.5z" />
<glyph unicode="&#xad;" horiz-adv-x="1843" d="M2 414q0 86 32 159.5t87 129t129 87t160 31.5q123 0 218 -61.5t146 -165.5q18 -29 65.5 -87t107 -127t124 -136.5t119.5 -114.5q49 -41 111.5 -65.5t132.5 -24.5q78 0 146.5 29.5t118.5 80t79.5 119t29.5 146.5q0 100 -47 183t-125 132l2 39q92 -53 147.5 -145t55.5 -209 q0 -86 -31.5 -160t-87 -129t-129 -87t-159.5 -32q-154 0 -267 98q-18 18 -63 61.5t-103.5 106t-125 139t-127.5 162.5q-47 98 -136.5 156.5t-201.5 58.5q-78 0 -146.5 -29.5t-119 -79.5t-80 -118.5t-29.5 -146.5q0 -104 52 -189.5t138 -134.5l-2 -39q-98 49 -159.5 144.5 t-61.5 218.5zM147 381q0 55 20.5 104.5t56.5 85t84 57t104 21.5q55 0 103 -21.5t84 -57t56.5 -85t20.5 -104.5t-20.5 -103.5t-56.5 -84t-84 -57t-103 -21.5t-103.5 21.5t-84.5 57t-56.5 84t-20.5 103.5zM1167 389q0 55 20.5 104.5t56.5 85t84 57t104 21.5q55 0 103 -21.5 t84 -57t56.5 -85t20.5 -104.5t-20.5 -103t-56.5 -84t-84 -57.5t-103 -21.5t-103.5 21.5t-84.5 57.5t-56.5 84t-20.5 103z" />
<glyph unicode="&#xae;" d="M0 1188v41h979l-451 -578l369 -581v135h45v-203h-207v41h127l-397 612l428 533h-696v-1178h-43v1178h-154z" />
<glyph unicode="&#xaf;" d="M0 1188v41h979l-451 -578l369 -581v135h45v-203h-207v41h127l-397 612l428 533h-696v-1178h-43v1178h-154zM139 1522l406 610l401 -610h-807zM238 1569h610l-303 502z" />
<glyph unicode="&#xb0;" d="M0 -168h2v-2h-2v2zM139 1522l406 610l401 -610h-807zM238 1569h610l-303 502zM983 -168h2v-2h-2v2z" />
<glyph unicode="&#xb1;" d="M0 1188v41h979l-451 -578l369 -581v135h45v-203h-207v41h127l-397 612l428 533h-696v-1178h-43v1178h-154zM188 1819v20h322l-240 295h39l230 -285l260 285h37l-269 -295h322v-20h-322l269 -299h-37l-260 284l-230 -284h-39l242 299h-324z" />
<glyph unicode="&#xb2;" d="M0 -170v-2h2v2h-2zM188 1823v20h322l-240 295h39l230 -285l260 285h37l-269 -295h322v-20h-322l269 -299h-37l-260 284l-230 -284h-39l242 299h-324zM983 -170v-2h2v2h-2z" />
<glyph unicode="&#xb3;" d="M0 1188h154v-1178h43v1178h696l-428 -533l397 -612h-127v-41h207v203h-45v-135l-369 581l451 578h-979v-41zM168 1681q0 72 48 120t118 48q49 0 88 -25.5t61 -68.5q8 -10 27.5 -33.5t44.5 -51.5t50.5 -56.5t47.5 -48.5q41 -35 101 -35q63 0 107 45t44 106q0 41 -18.5 75 t-50.5 56l2 17q35 -23 57.5 -62t22.5 -86q0 -70 -47.5 -117.5t-116.5 -47.5q-63 0 -111 38q-6 8 -24.5 26.5t-43 44.5t-51 56.5t-51.5 65.5q-20 39 -56 63.5t-83 24.5q-63 0 -107.5 -44t-44.5 -110q0 -88 78 -131l-2 -16q-41 20 -65.5 60t-24.5 87z" />
<glyph unicode="&#xb4;" d="M0 -176h2v-2h-2v2zM170 1683q0 72 48 120t118 48q49 0 88 -25.5t61 -68.5q8 -10 27.5 -33.5t44.5 -51t50.5 -56.5t47.5 -49q41 -35 101 -35q63 0 107 45t44 106q0 41 -18.5 75t-50.5 57l2 16q35 -23 57.5 -62t22.5 -86q0 -70 -47.5 -117.5t-116.5 -47.5q-66 0 -111 38 q-6 8 -24.5 27t-43 44.5t-51 56t-51.5 65.5q-20 39 -56 63.5t-83 24.5q-63 0 -107.5 -44t-44.5 -110q0 -88 78 -131l-2 -16q-41 20 -65.5 60t-24.5 87zM983 -176h2v-2h-2v2z" />
<glyph unicode="&#xb5;" d="M0 1188v41h979l-451 -578l369 -581v135h45v-203h-207v41h127l-397 612l428 533h-696v-1178h-43v1178h-154zM139 1518l406 610l401 -610h-807zM238 1565h610l-303 501z" />
<glyph unicode="&#xb6;" d="M0 -176v-2h2v2h-2zM139 1520l406 610l401 -610h-807zM238 1567h610l-303 501zM983 -176v-2h2v2h-2z" />
<glyph unicode="&#xb7;" d="M0 1192v43h977l-451 -584l408 -557v-47l-174 -186h133v-41h-209v211h45v-135l164 176l-428 581l426 539h-696v-1190h-41v1190h-154zM139 1520l406 610l401 -610h-807zM238 1567h610l-303 501z" />
<glyph unicode="&#xb8;" d="M0 -176h2v-2h-2v2zM139 1522l406 610l401 -610h-807zM238 1569h610l-303 502zM983 -176h2v-2h-2v2z" />
<glyph unicode="&#xb9;" d="M0 1372v43h979l-451 -584l408 -557v-47l-174 -188h133v-41h-209v213h45v-137l164 178l-428 582l426 538h-696v-1190h-41v1190h-156zM188 1821v20h322l-240 295h39l230 -285l260 285h37l-269 -295h322v-20h-322l269 -299h-37l-260 284l-230 -284h-39l242 299h-324z" />
<glyph unicode="&#xba;" d="M0 -176v-2h2v2h-2zM188 1821v20h322l-240 295h39l230 -285l260 285h37l-269 -295h322v-20h-322l269 -299h-37l-260 284l-230 -284h-39l242 299h-324zM983 -176v-2h2v2h-2z" />
<glyph unicode="&#xbb;" d="M0 1194h154v-1190h41v1190h696l-426 -539l428 -581l-164 -176v135h-45v-209h209v39h-133l174 186v47l-408 557l451 584h-977v-43zM168 1681q0 72 48 120t118 48q49 0 88 -25.5t61 -68.5q8 -10 27.5 -33.5t44.5 -51.5t50.5 -56.5t47.5 -48.5q41 -35 101 -35q63 0 107 45 t44 106q0 41 -18.5 75t-50.5 56l2 17q35 -23 57.5 -62t22.5 -86q0 -70 -47.5 -117.5t-116.5 -47.5q-63 0 -111 38q-6 8 -24.5 26.5t-43 44.5t-51 56.5t-51.5 65.5q-20 39 -56 63.5t-83 24.5q-63 0 -107.5 -44t-44.5 -110q0 -88 78 -131l-2 -16q-41 20 -65.5 60t-24.5 87z " />
<glyph unicode="&#xbc;" d="M0 -176v-2h2v2h-2zM168 1681q0 72 48 120t118 48q49 0 88 -25.5t61 -68.5q8 -10 27.5 -33.5t44.5 -51.5t50.5 -56.5t47.5 -48.5q41 -35 101 -35q63 0 107 45t44 106q0 41 -18.5 75t-50.5 56l2 17q35 -23 57.5 -62t22.5 -86q0 -70 -47.5 -117.5t-116.5 -47.5 q-66 0 -111 38q-6 8 -24.5 26.5t-43 44.5t-51 56.5t-51.5 65.5q-20 39 -56 63.5t-83 24.5q-63 0 -107.5 -44t-44.5 -110q0 -88 78 -131l-2 -16q-41 20 -65.5 60t-24.5 87zM983 -176v-2h2v2h-2z" />
<glyph unicode="&#xbd;" d="M4 1194v43h979l-451 -584l408 -557v-47l-174 -184h133v-41h-209v209h45v-133l164 174l-428 581l426 539h-696v-1190h-41v1190h-156zM139 1520l406 610l401 -610h-807zM238 1567h610l-303 501z" />
<glyph unicode="&#xbe;" d="M0 -176v-2h2v2h-2zM139 1518l406 610l401 -610h-807zM238 1565h610l-303 501zM983 -176v-2h2v2h-2z" />
<glyph unicode="&#xbf;" d="M0 1192v43h979l-451 -584l408 -557v-47l-174 -188h133v-41h-209v213h45v-137l164 178l-428 581l426 539h-696v-1190h-41v1190h-156z" />
<glyph unicode="&#xc0;" horiz-adv-x="2052" d="M-2 510q0 106 40 199.5t109.5 163t162.5 109.5t200 40q102 0 193.5 -39t161 -105.5t111.5 -155.5t46 -192q4 102 45 191.5t110.5 156t161 105.5t195.5 39q106 0 199.5 -40t163 -109.5t109.5 -163t40 -199.5t-40 -199.5t-109.5 -163t-163 -109.5t-199.5 -40 q-104 0 -195.5 38t-161 104.5t-110.5 155.5t-45 191q-4 -102 -46 -191t-111.5 -155.5t-161 -104.5t-193.5 -38q-106 0 -199.5 40t-163 109.5t-109.5 163t-40 199.5zM39 510q0 -98 37 -183t101.5 -149.5t149.5 -101.5t183 -37t183 37t149.5 101.5t101.5 149.5t37 183t-37 183 t-101.5 149.5t-149.5 101.5t-183 37t-183 -37t-149.5 -101.5t-101.5 -149.5t-37 -183zM1063 510q0 -98 37 -183t101.5 -149.5t149.5 -101.5t183 -37t183 37t149.5 101.5t101.5 149.5t37 183t-37 183t-101.5 149.5t-149.5 101.5t-183 37t-183 -37t-149.5 -101.5 t-101.5 -149.5t-37 -183z" />
<glyph unicode="&#xc1;" horiz-adv-x="1024" d="M0 512q0 106 40 199.5t109.5 163t163 109.5t199.5 40t199.5 -40t163 -109.5t109.5 -163t40 -199.5t-40 -199.5t-109.5 -163t-163 -109.5t-199.5 -40t-199.5 40t-163 109.5t-109.5 163t-40 199.5zM41 512q0 -98 37 -183t101.5 -149.5t149.5 -101.5t183 -37t183 37 t149.5 101.5t101.5 149.5t37 183t-37 183t-101.5 149.5t-149.5 101.5t-183 37t-183 -37t-149.5 -101.5t-101.5 -149.5t-37 -183z" />
<glyph unicode="&#xc2;" horiz-adv-x="1024" d="M0 512q0 102 38 193.5t104.5 161t155.5 111.5t191 46v-41q-94 -4 -176 -43t-142 -102.5t-95 -147.5t-35 -178q0 -96 35 -180t95 -147.5t142 -101.5t176 -42v-41q-102 4 -191 45t-155.5 110.5t-104.5 161t-38 195.5zM530 0v41q94 2 177.5 41t144.5 102.5t96 147.5t35 180 q0 94 -35 179t-96 148.5t-144 101.5t-178 42v41q102 -4 192.5 -46t157 -110.5t105.5 -160t39 -195.5t-39 -195.5t-105.5 -161t-156.5 -111.5t-193 -44z" />
<glyph unicode="&#xc3;" horiz-adv-x="1302" d="M92 1001v39h1032l-186 115l18 37l285 -168l-285 -182l-18 39l186 118z" />
<glyph unicode="&#xc4;" d="M0 1190v43h979l-451 -584l408 -557v-47l-174 -186h133v-41h-209v211h45v-135l164 176l-428 581l426 539h-696v-1190h-41v1190h-156zM274 1782q0 55 20.5 104t56.5 85t84 57.5t104 21.5q55 0 103 -21.5t84 -57.5t56.5 -85t20.5 -104t-20.5 -103.5t-56.5 -84t-84 -57 t-103 -21.5t-103.5 21.5t-84.5 57t-56.5 84t-20.5 103.5z" />
<glyph unicode="&#xc5;" d="M0 -170h2v-2h-2v2zM274 1782q0 55 20.5 104t56.5 85t84 57.5t104 21.5q55 0 103 -21.5t84 -57.5t56.5 -85t20.5 -104t-20.5 -103.5t-56.5 -84t-84 -57t-103 -21.5t-103.5 21.5t-84.5 57t-56.5 84t-20.5 103.5zM983 -170h2v-2h-2v2z" />
<glyph unicode="&#xc6;" horiz-adv-x="1638" d="M2 0l821 1237l811 -1237h-1632zM203 92h1235l-615 1018zM696 418q0 53 36 89t87 36q53 0 88 -36t35 -89q0 -51 -35 -87t-88 -36q-51 0 -87 36t-36 87z" />
<glyph unicode="&#xc7;" horiz-adv-x="1638" d="M2 0l821 1237l811 -1237h-1632zM203 92h1235l-615 1018z" />
<glyph unicode="&#xc8;" horiz-adv-x="1638" d="M0 0v25h31v-25h-31zM696 418q0 53 36 89t87 36q53 0 88 -36t35 -89q0 -51 -35 -87t-88 -36q-51 0 -87 36t-36 87zM819 1186v51h23v-51h-23zM1618 0v20h20v-20h-20z" />
<glyph unicode="&#xc9;" d="M0 1188v41h979l-451 -578l369 -581v135h45v-203h-207v41h127l-397 612l428 533h-696v-1178h-43v1178h-154zM270 1786q0 55 20.5 104t56.5 85t84 57.5t104 21.5q55 0 103 -21.5t84 -57.5t56.5 -85t20.5 -104t-20.5 -103.5t-56.5 -84t-84 -57t-103 -21.5t-103.5 21.5 t-84.5 57t-56.5 84t-20.5 103.5z" />
<glyph unicode="&#xca;" d="M0 -170h2v-2h-2v2zM270 1784q0 55 20.5 104t56.5 85t84 57.5t104 21.5q55 0 103 -21.5t84 -57.5t56.5 -85t20.5 -104t-20.5 -103.5t-56.5 -84t-84 -57t-103 -21.5t-103.5 21.5t-84.5 57t-56.5 84t-20.5 103.5zM983 -170h2v-2h-2v2z" />
<glyph unicode="&#xcb;" horiz-adv-x="901" d="M2 315q0 88 24.5 165t75 133.5t127 88t181.5 31.5q111 0 200.5 -31.5t154 -91t100.5 -144.5t36 -192q0 -139 -49 -262t-133 -217t-197.5 -153.5t-245.5 -67.5q82 20 160 61t139.5 111t98.5 171t37 243v10q-41 -61 -129 -111.5t-230 -50.5h-6q-80 0 -143.5 26.5 t-107.5 69.5t-68.5 98.5t-24.5 112.5z" />
<glyph unicode="&#xcc;" d="M0 -168v-2h2v2h-2zM180 1823q0 61 23.5 115.5t64.5 95.5t96.5 64.5t118.5 23.5q61 0 116.5 -23.5t96.5 -64.5t64.5 -95.5t23.5 -115.5t-23.5 -116.5t-64.5 -95.5t-96 -63.5t-117 -23.5q-63 0 -118.5 23.5t-96.5 63.5t-64.5 95.5t-23.5 116.5zM203 1823q0 -57 22.5 -107.5 t60.5 -87.5t89 -58.5t108 -21.5t107.5 21.5t88.5 58.5t59.5 87t21.5 108q0 57 -21.5 107t-59.5 88t-88 59.5t-108 21.5q-57 0 -108 -21.5t-89 -59.5t-60.5 -88t-22.5 -107zM983 -168v-2h2v2h-2z" />
<glyph unicode="&#xcd;" d="M0 -178v-2h2v2h-2zM4 1915v29h428l-317 393h51l305 -377l346 377h47l-354 -393h428v-29h-428l354 -391h-47l-346 374l-305 -374h-51l319 391h-430zM983 -178v-2h2v2h-2z" />
<glyph unicode="&#xce;" horiz-adv-x="847" d="M4 420v29q0 14 4 30q0 139 37 260t106.5 211t171 145.5t232.5 65.5q-82 -20 -160 -61t-139 -110.5t-98 -171t-37 -243.5v-8q63 88 147 128t176 40q90 0 163 -36.5t125 -101.5t81 -153t29 -192q0 -23 -3 -46.5t-8 -47.5q-25 -127 -73.5 -231.5t-121.5 -179.5t-169 -116 t-215 -41q-18 0 -37.5 1t-38.5 3q84 4 169 30t156.5 83t127 149.5t82.5 231.5l2 10q-51 -51 -123 -74.5t-154 -23.5q-90 0 -169 30.5t-137 86t-92 132.5t-34 171zM133 369q0 -61 23.5 -115.5t64.5 -95.5t95.5 -64.5t115.5 -23.5t116.5 23.5t96.5 64.5t64.5 95.5t23.5 115.5 t-23.5 116.5t-64.5 96.5t-96 64.5t-117 23.5q-61 0 -115.5 -23.5t-95.5 -64.5t-64.5 -96.5t-23.5 -116.5z" />
<glyph unicode="&#xcf;" horiz-adv-x="847" d="M4 420v29q0 14 4 30q0 139 37 260t106.5 211t171 145.5t232.5 65.5q-82 -20 -160 -61t-139 -110.5t-98 -171t-37 -243.5v-8q63 88 147 128t176 40q90 0 163 -36.5t125 -101.5t81 -153t29 -192q0 -23 -3.5 -46t-7.5 -48q-25 -127 -73.5 -231.5t-121.5 -179.5t-169 -116 t-215 -41q-18 0 -37.5 1t-38.5 3q84 4 169 30t156.5 83t127 149.5t82.5 231.5l2 10q-51 -51 -123 -74.5t-154 -23.5q-90 0 -169 30.5t-137 86t-92 132.5t-34 171z" />
<glyph unicode="&#xd0;" horiz-adv-x="847" d="M106 371q0 68 26 126t70 102t102 69.5t124 25.5q68 0 126 -25.5t102 -69.5t70 -102t26 -126q0 -66 -26 -124.5t-70 -102.5t-102 -69.5t-126 -25.5q-66 0 -124 25.5t-102 69.5t-70 102.5t-26 124.5z" />
<glyph unicode="&#xd1;" horiz-adv-x="1638" d="M2 0l821 1237l811 -1237h-1632zM203 92h1235l-615 955zM502 430q0 131 92 229q49 47 105.5 71t123.5 24q129 0 224 -95q94 -96 94 -229q0 -135 -94 -227q-94 -94 -224 -94q-68 0 -124 24.5t-105 71.5q-92 90 -92 225zM526 430q0 -119 86 -205q82 -84 209 -84 q119 0 203 82q88 86 88 207t-88 209q-45 43 -94 65.5t-109 22.5q-123 0 -207 -88q-88 -92 -88 -209z" />
<glyph unicode="&#xd2;" horiz-adv-x="1638" d="M2 0l821 1237l811 -1237h-1632zM203 92h1235l-615 955zM537 446v52h569v-52h-569zM541 193v51h569v-51h-569zM541 313v52h569v-52h-569z" />
<glyph unicode="&#xd3;" horiz-adv-x="1638" d="M61 0l762 1157l752 -1157h-1514z" />
<glyph unicode="&#xd4;" horiz-adv-x="1079" d="M-2 516q0 29 3 55.5t7 51.5v6q0 51 36 124.5t90 165t119.5 199t124 226t101.5 246.5t56 261l2 -14q18 -139 65 -269t106.5 -247t123 -220.5t116.5 -190.5t87 -156.5t34 -120.5v-8l12 -54v-55q0 -104 -43 -197.5t-116.5 -163t-172 -109.5t-210.5 -40q-113 0 -211.5 40 t-172 109.5t-115.5 163t-42 197.5z" />
<glyph unicode="&#xd5;" horiz-adv-x="1079" d="M-2 516q0 29 3 55.5t7 51.5v6q0 51 36 124.5t90 165t119.5 199t124 226t101.5 246.5t56 261l2 -14q18 -139 65 -269t106.5 -247t123 -220.5t116.5 -190.5t87 -156.5t34 -120.5v-8l12 -54v-55q0 -104 -43 -197.5t-116.5 -163t-172 -109.5t-210.5 -40q-113 0 -211.5 40 t-172 109.5t-115.5 163t-42 197.5zM799 743q6 -14 17 -45.5t22.5 -68.5t19.5 -73t8 -54h17q83 -1 151 28q-6 72 -14 118t-19.5 77t-28 53.5t-36.5 48.5q-18 -6 -31.5 -10t-28 -12t-33 -22.5t-44.5 -39.5z" />
<glyph unicode="&#xd6;" horiz-adv-x="1490" d="M37 207l342 182v-129h733v129l342 -182l-342 -174v125h-733v-129z" />
<glyph unicode="&#xd7;" horiz-adv-x="1490" d="M0 207l399 213v-144h693v144l399 -213l-399 -207v141h-693v-141zM37 207l342 -178v129h733v-125l342 174l-342 182v-129h-733v129z" />
<glyph unicode="&#xd8;" horiz-adv-x="493" d="M0 233q0 49 19.5 92.5t52 75t78 50t96.5 18.5t96 -18.5t79 -50t53.5 -75t19.5 -92.5t-19.5 -91t-53.5 -73.5t-79 -50t-96 -18.5t-96.5 18.5t-78 50t-52 73.5t-19.5 91zM18 233q0 -92 64.5 -153.5t163.5 -61.5q98 0 163.5 61.5t65.5 153.5q0 45 -17.5 85t-48 70 t-72.5 46.5t-91 16.5t-90 -16.5t-72 -46.5t-48.5 -69.5t-17.5 -85.5zM35 233q0 43 16.5 79t45 63.5t67.5 43t82 15.5q90 0 151.5 -57.5t61.5 -143.5q0 -84 -61.5 -141t-151.5 -57q-43 0 -82 15.5t-67.5 42t-45 63.5t-16.5 77z" />
<glyph unicode="&#xd9;" horiz-adv-x="1060" d="M0 233q0 49 20.5 92.5t57.5 75t85 50t103 18.5q49 0 94.5 -15.5t80 -42t58 -62.5t31.5 -77q6 41 30 77t58.5 62.5t79.5 42t95 15.5q55 0 104 -18.5t86 -50t57.5 -75t20.5 -92.5t-20.5 -91t-57.5 -73.5t-86 -50t-104 -18.5q-100 0 -173 55.5t-90 139.5 q-16 -84 -89.5 -139.5t-174.5 -55.5q-55 0 -103 18.5t-85 50t-57.5 73.5t-20.5 91zM18 233q0 -45 19.5 -83.5t52.5 -68.5t78 -46.5t98 -16.5q51 0 97.5 16.5t80 46.5t53 68.5t19.5 83.5t-19.5 85t-53 70t-80 46.5t-97.5 16.5q-53 0 -98 -16.5t-78 -46.5t-52.5 -69.5 t-19.5 -85.5zM39 233q0 86 65.5 143.5t161.5 57.5t163 -57.5t67 -143.5q0 -41 -18.5 -77.5t-49.5 -63t-73 -42t-89 -15.5q-96 0 -161.5 57.5t-65.5 140.5zM545 233q0 -45 19.5 -83.5t52 -68.5t77.5 -46.5t99 -16.5q51 0 97 16.5t80 46.5t53 68.5t19 83.5t-19 85t-53 70 t-80 46.5t-97 16.5q-53 0 -98.5 -16.5t-78 -46.5t-52 -69.5t-19.5 -85.5zM565 233q0 86 65.5 143.5t162.5 57.5q96 0 162.5 -57.5t66.5 -143.5q0 -41 -18.5 -77.5t-49 -63t-72.5 -42t-89 -15.5q-96 0 -162 57.5t-66 140.5z" />
<glyph unicode="&#xda;" horiz-adv-x="1060" d="M0 252q0 53 20.5 99t57.5 81t85 54.5t103 19.5q18 0 37 -2t35 -6q-39 35 -60.5 82t-21.5 100t20.5 99t57.5 81t85 54.5t103 19.5t104.5 -19.5t86.5 -54.5t57.5 -81t20.5 -99q0 -57 -24 -105.5t-65 -82.5q37 14 91 14q55 0 104 -19.5t86 -54.5t57.5 -81t20.5 -99 t-20.5 -98t-57.5 -80t-86 -54.5t-104 -19.5q-49 0 -94.5 16.5t-80 44t-57 66.5t-31.5 84q-16 -90 -89.5 -150.5t-174.5 -60.5q-55 0 -103 19.5t-85 54.5t-57.5 80t-20.5 98zM18 252q0 -49 19.5 -91t52.5 -74t78 -50.5t98 -18.5q51 0 97.5 18.5t80 50.5t53 74t19.5 91 t-19.5 92t-53 75t-80 50t-97.5 18q-53 0 -98 -18t-78 -50t-52.5 -75t-19.5 -92zM39 252q0 45 17.5 85t48 68.5t72.5 46t89 17.5t89 -17.5t73 -46t49.5 -68.5t18.5 -85t-18.5 -84t-49.5 -68.5t-73 -46t-89 -16.5t-89 16.5t-72.5 46t-48 68.5t-17.5 84zM276 680 q0 -49 19.5 -92t52.5 -74t78 -49.5t96 -18.5t97.5 18.5t80 49.5t53 74t19.5 92t-19.5 92t-53 75t-80 50t-97.5 18t-96 -18t-78 -50t-52.5 -75t-19.5 -92zM295 680q0 45 17.5 85t48 68.5t72.5 46t89 17.5t89 -17.5t74 -46t50.5 -68.5t18.5 -85t-18.5 -84t-50.5 -68.5t-74 -46 t-89 -16.5t-89 16.5t-72.5 46t-48 68.5t-17.5 84zM451 436q66 -57 79 -143q16 94 86 149q-41 -14 -94 -14q-18 0 -36.5 2t-34.5 6zM545 252q0 -49 19.5 -91t52 -74t77.5 -50.5t99 -18.5q51 0 97 18.5t80 50.5t53 74t19 91t-19 92t-53 75t-80 50t-97 18q-53 0 -98.5 -18 t-78 -50t-52 -75t-19.5 -92zM565 252q0 45 17.5 85t48.5 68.5t72.5 46t89.5 17.5q47 0 89 -17.5t72.5 -46t49 -68.5t18.5 -85t-18.5 -84t-49 -68.5t-72.5 -46t-89 -16.5t-89 16.5t-73 46t-48.5 68.5t-17.5 84z" />
<glyph unicode="&#xdb;" horiz-adv-x="1060" d="M0 707q0 55 20.5 102t57.5 82t85 55.5t103 20.5q41 0 72 -9q-39 35 -60.5 84.5t-21.5 102.5q0 55 20.5 102t57.5 83t85 56.5t103 20.5t104.5 -20.5t86.5 -56.5t57.5 -83t20.5 -102q0 -57 -24 -107.5t-65 -85.5q37 14 91 15q55 0 104 -20.5t86 -55.5t57.5 -82t20.5 -102 q0 -53 -20.5 -101.5t-57.5 -83.5t-86 -55.5t-104 -20.5q-61 0 -111 25q51 -37 80 -91t29 -120q0 -53 -20.5 -101t-57.5 -83t-86 -55.5t-105 -20.5q-55 0 -103 20.5t-85 55.5t-57.5 83t-20.5 101q0 59 26.5 112.5t71.5 88.5q-23 -6 -44 -10.5t-44 -4.5q-55 0 -103 20.5 t-85 55.5t-57.5 83t-20.5 102zM18 707q0 -49 19.5 -93.5t52.5 -77t78 -51t98 -18.5q51 0 97.5 18.5t80 51t53 77t19.5 93.5q0 51 -19.5 95t-53 76.5t-80 51t-97.5 18.5q-53 0 -98 -18.5t-78 -51t-52.5 -76.5t-19.5 -95zM39 707q0 45 17.5 86t48 71.5t72.5 48t89 17.5 t89 -17.5t73 -48t49.5 -71.5t18.5 -86q0 -47 -18.5 -87t-49.5 -70t-73 -47.5t-89 -17.5t-89 17.5t-72.5 47.5t-48 69.5t-17.5 87.5zM276 260q0 -51 19.5 -95t52.5 -77t78 -51.5t96 -18.5t97.5 18.5t80 51.5t53 77t19.5 95t-19.5 95t-53 77t-80 51.5t-97.5 18.5t-96 -18.5 t-78 -51.5t-52.5 -77t-19.5 -95zM276 1145q0 -49 19.5 -93t52.5 -77t78 -51.5t96 -18.5t97.5 18.5t80 51.5t53 77t19.5 93q0 51 -19.5 96t-53 78t-80 51.5t-97.5 18.5t-96 -18.5t-78 -51.5t-52.5 -78t-19.5 -96zM295 260q0 45 17.5 86t48 70.5t72.5 47t89 17.5t89 -17.5 t74 -47t50.5 -70.5t18.5 -86q0 -47 -18.5 -87t-50.5 -69.5t-74 -47t-89 -17.5t-89 17.5t-72.5 47t-48 69.5t-17.5 87zM295 1145q0 47 17.5 88t48 70.5t72.5 47t89 17.5t89 -17.5t74 -47t50.5 -70.5t18.5 -88q0 -45 -18.5 -85t-50.5 -69.5t-74 -47t-89 -17.5t-89 17.5 t-72.5 47t-48 69.5t-17.5 85zM438 508q20 4 41 8t43 4q31 0 58.5 -7t54.5 -17q-87 64 -105 168q-18 -98 -92 -156zM451 897q63 -61 79 -147q16 94 86 151q-41 -14 -94 -14q-34 0 -71 10zM545 707q0 -49 19.5 -93.5t52 -77t77.5 -51t99 -18.5q51 0 97 18.5t80 51t53 77 t19 93.5q0 51 -19 95t-53 76.5t-80 51t-97 18.5q-53 0 -98.5 -18.5t-78 -51t-52 -76.5t-19.5 -95zM565 707q0 45 17.5 86t48.5 71.5t72.5 48t89.5 17.5q47 0 89 -17.5t72.5 -48t49 -71.5t18.5 -86q0 -47 -18.5 -87t-49 -70t-72.5 -47.5t-89 -17.5t-89 17.5t-73 47.5 t-48.5 69.5t-17.5 87.5z" />
<glyph unicode="&#xdc;" horiz-adv-x="641" d="M-27 1565q0 35 23.5 57.5t58.5 22.5q33 0 56.5 -23t23.5 -57q0 -39 -31 -64v-10h537v-535h-539v-956h-102v1505q-27 23 -27 60z" />
<glyph unicode="&#xdd;" horiz-adv-x="641" d="M-27 1565q0 35 23.5 57.5t58.5 22.5q33 0 56.5 -23t23.5 -57q0 -39 -31 -64v-10h537v-535h-539v-956h-102v1505q-27 23 -27 60zM248 1116h211v211h-211v-211z" />
<glyph unicode="&#xde;" horiz-adv-x="641" d="M0 0v4h6v-4h-6zM104 956v535h537v-535h-537zM248 1116h211v211h-211v-211z" />
<glyph unicode="&#xdf;" horiz-adv-x="641" d="M-27 1565q0 35 23.5 57.5t58.5 22.5q33 0 56.5 -23t23.5 -57q0 -39 -31 -64l-2 -10v-1491h-102v1505q-27 23 -27 60z" />
<glyph unicode="&#xe0;" horiz-adv-x="641" d="M-27 1565q0 35 23.5 57.5t58.5 22.5q33 0 56.5 -23t23.5 -57q0 -39 -31 -64v-10h537v-535h-539v-92h539v-534h-539v-330h-102v1505q-27 23 -27 60z" />
<glyph unicode="&#xe1;" horiz-adv-x="641" d="M-27 1565q0 35 23.5 57.5t58.5 22.5q33 0 56.5 -23t23.5 -57q0 -39 -31 -64v-10h537v-535h-539v-92h539v-534h-539v-330h-102v1505q-27 23 -27 60zM236 1120h210v211h-210v-211zM238 477h211v211h-211v-211z" />
<glyph unicode="&#xe2;" horiz-adv-x="641" d="M0 0v8h6v-8h-6zM104 330v534h537v-534h-537zM104 956v535h537v-535h-537zM236 1120h210v211h-210v-211zM238 477h211v211h-211v-211z" />
<glyph unicode="&#xe3;" horiz-adv-x="641" d="M-27 1565q0 35 23.5 57.5t58.5 22.5q33 0 56.5 -23t23.5 -57q0 -39 -31 -64v-10l541 -281l-543 -254v-956h-102v1505q-27 23 -27 60z" />
<glyph unicode="&#xe4;" horiz-adv-x="641" d="M0 0v6h6v-6h-6zM102 956v535h2l541 -281z" />
<glyph unicode="&#xe5;" horiz-adv-x="645" d="M-27 1565q0 35 23.5 57.5t58.5 22.5q33 0 56.5 -23t23.5 -57q0 -39 -31 -64v-10l541 -281l-543 -254l543 -282l-543 -254v-420h-102v1505q-27 23 -27 60z" />
<glyph unicode="&#xe6;" horiz-adv-x="645" d="M0 0v8h8v-8h-8zM102 420v536l543 -282zM102 956v535h2l541 -281z" />
<glyph unicode="&#xe7;" horiz-adv-x="1236" d="M0 338v123h330v563l-76 -51l-51 51l190 242l195 -240l-51 -53l-80 51v-563h553l-47 71l53 50l227 -185l-227 -190l-53 49l49 82h-555v-338h-127v338h-330zM18 356h332v-338h88v338h611l-68 -108l27 -23l206 172l-204 166l-27 -24l64 -97h-609v619l105 -70l24 27l-174 215 l-170 -215l27 -27l100 70v-619h-332v-86z" />
<glyph unicode="&#xe8;" horiz-adv-x="1236" d="M18 356v86h332v619l-100 -70l-27 27l170 215l174 -215l-24 -27l-105 70v-619h609l-64 97l27 24l204 -166l-206 -172l-27 23l68 108h-611v-338h-88v338h-332z" />
<glyph unicode="&#xe9;" horiz-adv-x="1243" d="M0 532v123h522v369l-78 -51l-49 51l191 242l194 -240l-51 -53l-80 51v-369h361l-47 72l53 49l227 -184l-227 -191l-53 50l49 81h-363v-532h-127v532h-522zM18 551h523v-533h88v533h420l-68 -109l27 -22l206 172l-204 166l-27 -27l64 -94h-418v424l106 -70l25 27l-174 215 l-172 -215l28 -27l99 70v-424h-523v-86z" />
<glyph unicode="&#xea;" horiz-adv-x="1243" d="M18 551v86h523v424l-99 -70l-28 27l172 215l174 -215l-25 -27l-106 70v-424h418l-64 94l27 27l204 -166l-206 -172l-27 22l68 109h-420v-533h-88v533h-523z" />
<glyph unicode="&#xeb;" horiz-adv-x="1243" d="M4 295q0 61 24.5 115.5t68.5 95.5t102.5 64.5t126.5 23.5q100 0 180 -51t117 -133q35 82 115.5 132t183.5 50q68 0 126 -23.5t101 -64.5t68.5 -95.5t25.5 -115.5t-25.5 -116.5t-68.5 -95.5t-101.5 -63.5t-125.5 -23.5q-102 0 -183.5 51t-115.5 135q-37 -82 -117 -133 t-180 -51q-68 0 -126.5 23.5t-102.5 63.5t-68.5 95.5t-24.5 116.5zM102 295q0 -43 17.5 -81t48.5 -65.5t71 -43t87 -15.5q45 0 86 15.5t70.5 43t47 65.5t17.5 81t-17.5 81t-47 65.5t-70.5 44t-86 16.5q-47 0 -87 -16.5t-71 -44t-48.5 -65.5t-17.5 -81zM696 293 q0 -43 17.5 -81t48.5 -65.5t71.5 -43t88.5 -15.5q45 0 86 15.5t70.5 43t47 65.5t17.5 81t-17.5 82t-47 66.5t-70.5 44t-86 16.5q-47 0 -88 -16.5t-72 -44t-48.5 -66.5t-17.5 -82z" />
<glyph unicode="&#xec;" horiz-adv-x="1243" d="M102 295q0 43 17.5 81t48.5 65.5t71 44t87 16.5q45 0 86 -16.5t70.5 -44t47 -65.5t17.5 -81t-17.5 -81t-47 -65.5t-70.5 -43t-86 -15.5q-47 0 -87 15.5t-71 43t-48.5 65.5t-17.5 81zM696 293q0 43 17.5 82t48.5 66.5t71.5 44t88.5 16.5q45 0 86 -16.5t70.5 -44t47 -66.5 t17.5 -82t-17.5 -81t-47 -65.5t-70.5 -43t-86 -15.5q-47 0 -88 15.5t-72 43t-48.5 65.5t-17.5 81z" />
<glyph unicode="&#xed;" horiz-adv-x="847" d="M4 252q0 104 28.5 192t81 153t125 101.5t162.5 36.5q92 0 176.5 -40t147.5 -128v8q0 141 -37 243t-98.5 171.5t-139 110.5t-159.5 61q131 -10 232.5 -65.5t171 -145.5t106.5 -211t37 -260q4 -16 4 -30v-29q0 -94 -34 -171t-92.5 -132.5t-137 -86t-168.5 -30.5 q-82 0 -154 23.5t-123 74.5l2 -10q27 -139 82 -231.5t127 -149.5t157 -82.5t169 -30.5q-18 -2 -38 -3t-38 -1q-119 0 -215 41t-169 116t-122 179.5t-74 231.5q-4 25 -7 48t-3 46zM113 369q0 -61 23.5 -115.5t64.5 -95.5t96 -64.5t117 -23.5q61 0 115.5 23.5t95.5 64.5 t64.5 95t23.5 116q0 61 -23.5 116.5t-64.5 96.5t-95.5 64.5t-115.5 23.5t-116.5 -23.5t-96.5 -64.5t-64.5 -96.5t-23.5 -116.5z" />
<glyph unicode="&#xee;" horiz-adv-x="847" d="M4 252q0 104 28.5 192t81 153t125 101.5t162.5 36.5q92 0 176.5 -40t147.5 -128v8q0 141 -37 243t-98.5 171.5t-139 110.5t-159.5 61q131 -10 232.5 -65.5t171 -145.5t106.5 -211t37 -260q4 -16 4 -30v-29q0 -94 -34 -171t-92.5 -132.5t-137 -86t-168.5 -30.5 q-82 0 -154 23.5t-123 74.5l2 -10q27 -139 82 -231.5t127 -149.5t157 -82.5t169 -30.5q-18 -2 -38 -3t-38 -1q-119 0 -215 41t-169 116t-122 179.5t-74 231.5q-4 25 -7 48t-3 46z" />
<glyph unicode="&#x2000;" horiz-adv-x="1168" />
<glyph unicode="&#x2001;" horiz-adv-x="2337" />
<glyph unicode="&#x2002;" horiz-adv-x="1168" />
<glyph unicode="&#x2003;" horiz-adv-x="2337" />
<glyph unicode="&#x2004;" horiz-adv-x="779" />
<glyph unicode="&#x2005;" horiz-adv-x="584" />
<glyph unicode="&#x2006;" horiz-adv-x="389" />
<glyph unicode="&#x2007;" horiz-adv-x="389" />
<glyph unicode="&#x2008;" horiz-adv-x="292" />
<glyph unicode="&#x2009;" horiz-adv-x="467" />
<glyph unicode="&#x200a;" horiz-adv-x="129" />
<glyph unicode="&#x2010;" horiz-adv-x="1839" d="M0 12q0 25 31 103q45 113 190 112h8q156 -2 201 -114q33 -72 33 -103q0 -10 -6 -10h-451q-6 0 -6 12zM465 0l219 387l234 -387h-453zM922 12q0 29 30 103q45 113 193 112h8q154 -2 199 -114q33 -74 32 -105q0 -8 -4 -8h-450q-8 0 -8 12zM1386 0l222 387l231 -387h-453z " />
<glyph unicode="&#x2011;" horiz-adv-x="1839" d="M0 12q0 25 31 103q45 113 190 112h8q156 -2 201 -114q33 -72 33 -103q0 -10 -6 -10h-451q-6 0 -6 12zM465 0l219 387l234 -387h-453zM922 12q0 29 30 103q45 113 193 112h8q154 -2 199 -114q33 -74 32 -105q0 -8 -4 -8h-450q-8 0 -8 12zM1386 0l222 387l231 -387h-453z " />
<glyph unicode="&#x2012;" horiz-adv-x="1839" d="M0 12q0 25 31 103q45 113 190 112h8q156 -2 201 -114q33 -72 33 -103q0 -10 -6 -10h-451q-6 0 -6 12zM465 0l219 387l234 -387h-453zM922 12q0 29 30 103q45 113 193 112h8q154 -2 199 -114q33 -74 32 -105q0 -8 -4 -8h-450q-8 0 -8 12zM1386 0l222 387l231 -387h-453z " />
<glyph unicode="&#x2013;" horiz-adv-x="1024" d="M0 12q0 25 17 103q25 113 106 112h5q86 -2 111 -114q19 -72 19 -103q0 -10 -4 -10h-251q-3 0 -3 12zM259 0l122 387l130 -387h-252zM513 12q0 29 17 103q25 113 108 112h4q86 -2 111 -114q18 -74 18 -105q0 -8 -3 -8h-250q-5 0 -5 12zM772 0l123 387l129 -387h-252z" />
<glyph unicode="&#x2014;" horiz-adv-x="2048" d="M0 12q0 25 35 103q50 113 211 112h9q174 -2 224 -114q37 -72 37 -103q0 -10 -7 -10h-502q-7 0 -7 12zM518 0l244 387l260 -387h-504zM1027 12q0 29 33 103q50 113 215 112h9q172 -2 222 -114q36 -74 35 -105q0 -8 -4 -8h-501q-9 0 -9 12zM1544 0l247 387l257 -387h-504z " />
<glyph unicode="&#x202f;" horiz-adv-x="467" />
<glyph unicode="&#x205f;" horiz-adv-x="584" />
<glyph unicode="&#x25fc;" horiz-adv-x="1648" d="M0 0v1649h1649v-1649h-1649z" />
</font>
</defs>
</svg>
